Follow by Email

COPYRIGHT LE NGUYEN. Powered by Blogger.
Related Posts Plugin for WordPress, Blogger...

Bruno (2009)

Bruno (2009) DVDRip-MAXSPEED Torrent Download



Bittorrent Torrent Details
Size 704.1 MB in 7 files Subtitles None available yet.
Added 28-08-2009

Updated 39 years, 8 months ago Uploader Unknown
Status 15059 seeds 31214 peers Rating Currently unavailable
Hash 29f3d9dac491f0dce466fbac085013d3063bf932
Download Torrent

Bruno (2009) DVDRip-MAXSPEED.torrent

Alternative: Fast HTTP Download



Bruno (2009) DVDRip-MAX

Format : AVI
Format/Info : Audio Video Interleave
File size : 700 MiB
Duration : 1h 17mn
Overall bit rate : 1 264 Kbps
Writing application : VirtualDubMod 1.5.10.2 (build 2540/release)
Writing library : VirtualDubMod build 2540/release
Original source form : MAX TORRENTZ
Copyright : SIGISMUNT

Video
Format : MPEG-4 Visual
Format profile : Streaming Video@L1
Format settings, BVOP : Yes
Format settings, QPel : No
Format settings, GMC : No warppoints
Format settings, Matrix : Default (H.263)
Codec ID : XVID
Codec ID/Hint : XviD
Duration : 1h 17mn
Bit rate : 1 123 Kbps
Width : 624 pixels
Height : 336 pixels
Display aspect ratio : 1.857
Frame rate : 25.000 fps
Resolution : 24 bits
Colorimetry : 4:2:0
Scan type : Progressive
Bits/(Pixel*Frame) : 0.214
Stream size : 622 MiB (89%)
Writing library : XviD 1.2.1 (UTC 2008-12-04)

Audio
Format : MPEG Audio
Format version : Version 1
Format profile : Layer 3
Codec ID : 55
Codec ID/Hint : MP3
Duration : 1h 17mn
Bit rate mode : Variable
Bit rate : 128 Kbps
Channel(s) : 2 channels
Sampling rate : 48.0 KHz
Resolution : 16 bits
Stream size : 71.2 MiB (10%)
Alignment : Aligned on interleaves
Interleave, duration : 24 ms (0.60 video frame)
Interleave, preload duration : 317 ms
Writing library : LAME3.90.
Encoding settings : -m j -V 4 -q 2 -lowpass 17.6 --abr 128


Screens:
http://img.moviedl.net/images/50129231981566102718.jpg

http://img.moviedl.net/images/49671800472073766175.jpg

http://img.moviedl.net/images/76123045720428517433.jpg

http://img.moviedl.net/images/30445122491525291823.jpg

http://img.moviedl.net/images/40796511986491311383.jpg


ScreenCaps:
http://img.moviedl.net/images/10424356328544469682.jpg



Recomended MAXSPEED torrents:

Drag Me To Hell (2009) DVDSCR-MAX
http://torrents.thepiratebay.org/5071723/Drag_Me_To_Hell_(2009)_DVDSCR-MAX.5071723.TPB.torrent


District 9 (2009) ENGLISH TS XviD-MAX
http://torrents.thepiratebay.org/5057649/District_9_(2009)_ENGLISH_TS_XviD-MAX.5057649.TPB.torrent


Funny People (2009) TS XviD-MAX
http://torrents.thepiratebay.org/5056193/Funny_People_(2009)_TS_XviD-MAX.5056193.TPB.torrent


Ice Age 3 Dawn Of The Dinosaurs (2009) DVDRip XviD-MAX
http://torrents.thepiratebay.org/5045715/Ice_Age_3_Dawn_Of_The_Dinosaurs_(2009)_DVDRip_XviD-MAX.5045715.TPB.torrent


X-Men Origins Wolverine (2009) DVDRip-MAX
http://torrents.thepiratebay.org/5035544/X-Men_Origins_Wolverine_(2009)_DVDRip-MAX.5035544.TPB.torrent


The Taking Of Pelham 123 (2009) TS
http://torrents.thepiratebay.org/5022395/The_Taking_Of_Pelham_123_(2009)_TS_.5022395.TPB.torrent


Harry Potter 6 Half Blood Prince (2009) TS
http://torrents.thepiratebay.org/5022380/Harry_Potter_6_Half_Blood_Prince_(2009)_TS_.5022380.TPB.torrent


Race To Witch Mountain (2009) DVDRip
http://torrents.thepiratebay.org/5022472/Race_To_Witch_Mountain_(2009)_.5022472.TPB.torrent


Watchmen (2009) DVDRip
http://torrents.thepiratebay.org/5022397/Watchmen_(2009)_.5022397.TPB.torrent


Transformers 2 Revenge Of The Fallen TS XVID MAXSPEED
http://torrents.thepiratebay.org/5022396/Transformers_2_Revenge_Of_The_Fallen_TS_XVID_MAXSPEED.5022396.TPB.torrent


The Hangover (2009) DVDSCR-MAXSPEED
http://torrents.thepiratebay.org/5022391/The_Hangover_(2009)_DVDSCR-MAXSPEED.5022391.TPB.torrent


Terminator Salvation (2009) DDC
http://torrents.thepiratebay.org/5022390/Terminator_Salvation_(2009)_DDC_.5022390.TPB.torrent


Angels and Demons (2009) DVDRip
http://torrents.thepiratebay.org/5022369/Angels___Demons_(2009)_DVDRip_.5022369.TPB.torrent


Call Of Juarez Bound In Blood Razor1911 MAXSPEED
http://torrents.thepiratebay.org/5022378/Call_Of_Juarez_Bound_In_Blood_Razor1911_MAXSPEED.5022378.TPB.torrent


Fast and Furious (2009) DVDRip
http://torrents.thepiratebay.org/5022379/Fast_and_Furious_(2009)_.5022379.TPB.torrent


Prototype-Razor1911 FULL PC ISO MAXSPEED
http://torrents.thepiratebay.org/5022387/Prototype-Razor1911_FULL_PC_ISO_MAXSPEED.5022387.TPB.torrent


Public Enemies (2009) TS
http://torrents.thepiratebay.org/5022388/Public_Enemies_(2009)_TS_.5022388.TPB.torrent


The Sims 3 - Razor1911 Final MAXSPEED
http://torrents.thepiratebay.org/5022393/The_Sims_3_-_Razor1911_Final_MAXSPEED.5022393.TPB.torrent

0 nhận xét:

Post a Comment

 
2012 Free Movies Online - Download | BTemplate3s | Blogger Templates for HostGator Coupon Code Sponsors: WooThemes Coupon Code, Rockable Press Discount Code